<?xml version="1.0" standalone="no"?>
<!DOCTYPE svg PUBLIC "-//W3C//DTD SVG 1.1//EN" "http://www.w3.org/Graphics/SVG/1.1/DTD/svg11.dtd" >
<svg xmlns="http://www.w3.org/2000/svg">
<metadata>
<json>
<![CDATA[
{
	"fontFamily": "xpeedstudio-Icons",
	"majorVersion": 1,
	"minorVersion": 0,
	"version": "Version 1.0",
	"fontId": "xpeedstudio-Icons",
	"psName": "xpeedstudio-Icons",
	"subFamily": "Regular",
	"fullName": "xpeedstudio-Icons",
	"description": "Font generated by IcoMoon."
}
]]>
</json>
</metadata>
<defs>
<font id="xpeedstudio-Icons" horiz-adv-x="512">
<font-face units-per-em="512" ascent="480" descent="-32" />
<missing-glyph horiz-adv-x="512" />
<glyph unicode="&#x20;" horiz-adv-x="256" d="" />
<glyph unicode="&#xe900;" glyph-name="play-button" data-tags="play-button" d="M393.149 212.58l-252.695-240.179c-6.244-6.034-16.299-5.808-22.094 0.45-2.897 3.108-4.458 6.905-4.458 10.913v0 480.385c0 8.705 7.144 15.849 15.85 15.849 4.458 0 8.706-2.011 11.602-5.133l251.795-239.518c6.244-6.034 6.695-15.85 0.675-22.319-0.225-0.239-0.45-0.239-0.675-0.45v0zM245.157 115.246l114.506 108.712-214.287 203.585v-407.17l99.781 94.873z" />
<glyph unicode="&#xe901;" glyph-name="signs" data-tags="signs" d="M512 248.381h-231.619v231.619h-48.762v-231.619h-231.619v-48.762h231.619v-231.619h48.762v231.619h231.619z" />
<glyph unicode="&#xe905;" glyph-name="interface-4" data-tags="interface-4" d="M0 53.334h170.667v56.889h-170.667v-56.889zM0 394.666v-56.889h512v56.889h-512zM0 195.555h341.334v56.889h-341.334v-56.889z" />
<glyph unicode="&#xe906;" glyph-name="arrows-4" data-tags="arrows-4" d="M157.867 480l-59.733-59.733 196.266-196.267-196.267-196.267 59.733-59.733 256 256z" />
<glyph unicode="&#xe907;" glyph-name="arrows" data-tags="arrows" d="M439.697 234.039l-353.532 243.815c-3.743 2.572-8.594 2.841-12.593 0.756-4.011-2.109-6.522-6.254-6.522-10.789v-487.63c0-4.535 2.511-8.692 6.522-10.801 1.78-0.926 3.731-1.389 5.668-1.389 2.426 0 4.84 0.731 6.924 2.158l353.532 243.815c3.303 2.279 5.267 6.022 5.267 10.033s-1.975 7.754-5.267 10.033z" />
<glyph unicode="&#xe908;" glyph-name="arrows-2" data-tags="arrows-2" d="M344.775 398.591c-6.975 7.219-18.584 7.219-25.803 0-6.975-6.975-6.975-18.584 0-25.543l130.837-130.837h-431.745c-10.065-0.017-18.064-8.016-18.064-18.080s8-18.324 18.064-18.324h431.745l-130.837-130.594c-6.975-7.219-6.975-18.844 0-25.803 7.219-7.219 18.844-7.219 25.803 0l161.811 161.811c7.219 6.975 7.219 18.584 0 25.543l-161.811 161.827z" />
<glyph unicode="&#xe909;" glyph-name="square-1" data-tags="square-1" d="M455.111 480h-398.222c-31.289 0-56.889-25.6-56.889-56.889v-398.222c0-31.289 25.6-56.889 56.889-56.889h398.222c31.289 0 56.889 25.6 56.889 56.889v398.222c0 31.289-25.6 56.889-56.889 56.889zM398.222 195.555h-113.778v-113.778h-56.889v113.778h-113.778v56.889h113.778v113.778h56.889v-113.778h113.778v-56.889z" />
<glyph unicode="&#xe90a;" glyph-name="arrows-3" data-tags="arrows-3" d="M167.009 398.568c7.218 7.218 18.582 7.218 25.8 0 6.975-6.974 6.975-18.582 0-25.54l-130.821-130.821h431.69c10.063 0 18.322-7.999 18.322-18.061s-8.259-18.322-18.322-18.322h-431.69l130.821-130.577c6.975-7.218 6.975-18.842 0-25.8-7.218-7.218-18.582-7.218-25.8 0l-161.791 161.791c-6.974 6.974-6.974 18.582 0 25.54l161.791 161.79z" />
<glyph unicode="&#xe90b;" glyph-name="arrow" data-tags="arrow" d="M512 0v-32h-512v512h32v-480h480zM448 480l-125.969-20.594 30.281-37.031-266.438-218 20.25-24.75 266.469 218 30.281-37 45.126 119.375zM413.219 297.437l-29.219 35.719v-301.156h64v357.469l-34.781-92.032zM192 208.531v-176.531h64v228.875l-64-52.344zM101.609 134.594l-5.609 6.875v-109.469h64v150.375l-58.391-47.781zM288 287.062v-255.062h64v307.437l-64-52.375z" />
<glyph unicode="&#xe90f;" glyph-name="circle" data-tags="circle" d="M281.579 352h-51.157v-102.421h-102.422v-51.157h102.421v-102.421h51.157v102.42h102.421v51.157h-102.42c0 0 0 102.422 0 102.422zM256 480c-141.055 0-256-114.944-256-256 0-141.035 114.944-256 256-256h204.8c28.159 0 51.2 23.040 51.2 51.2v204.8c0.001 141.055-114.964 256-256 256zM256 19.2c-112.917 0-204.8 91.882-204.8 204.8s91.882 204.8 204.8 204.8 204.8-91.882 204.8-204.8-91.882-204.8-204.8-204.8z" />
<glyph unicode="&#xe916;" glyph-name="paper" data-tags="paper" d="M509.394 459.031c-2.279 1.999-5.522 2.463-8.272 1.188l-496.693-230.778c-2.674-1.243-4.396-3.911-4.428-6.859s1.633-5.652 4.281-6.952l140.564-68.983c2.577-1.266 5.651-0.979 7.953 0.741l136.666 102.146-107.289-110.359c-1.53-1.575-2.311-3.731-2.143-5.921l10.683-139.118c0.237-3.082 2.304-5.719 5.241-6.685 0.785-0.257 1.592-0.382 2.389-0.382 2.188 0 4.315 0.938 5.795 2.652l74.607 86.454 92.229-44.067c2.002-0.957 4.32-0.997 6.353-0.111s3.583 2.61 4.248 4.725l130.071 414.264c0.909 2.893 0.023 6.048-2.255 8.046z" />
<glyph unicode="&#xe917;" glyph-name="social-2" data-tags="social-2" d="M383.983 479.894l-66.395 0.106c-74.593 0-122.798-49.457-122.798-126.004v-58.096h-66.757c-5.769 0-10.44-4.676-10.44-10.445v-84.175c0-5.769 4.677-10.44 10.44-10.44h66.757v-212.4c0-5.769 4.672-10.44 10.44-10.44h87.099c5.769 0 10.44 4.676 10.44 10.44v212.4h78.055c5.769 0 10.44 4.671 10.44 10.44l0.032 84.175c0 2.77-1.103 5.423-3.058 7.382s-4.618 3.063-7.388 3.063h-78.082v49.249c0 23.671 5.641 35.688 36.476 35.688l44.726 0.016c5.764 0 10.435 4.677 10.435 10.44v78.161c0 5.758-4.666 10.43-10.424 10.44z" />
<glyph unicode="&#xe918;" glyph-name="search" data-tags="search" d="M499.467 41.041l-111.229 111.227c-0.591 0.591-1.284 1.005-1.902 1.555 21.886 33.2 34.66 72.94 34.66 115.678 0 116.257-94.243 210.5-210.498 210.5s-210.498-94.243-210.498-210.498c0-116.252 94.242-210.498 210.496-210.498 42.739 0 82.478 12.774 115.678 34.66 0.55-0.615 0.962-1.309 1.553-1.9l111.231-111.231c16.709-16.707 43.799-16.707 60.51 0 16.707 16.709 16.707 43.799 0 60.508zM210.498 131.976c-75.956 0-137.527 61.572-137.527 137.525 0 75.956 61.574 137.527 137.527 137.527 75.951 0 137.525-61.574 137.525-137.527s-61.574-137.525-137.525-137.525z" />
<glyph unicode="&#xe919;" glyph-name="commerce" data-tags="commerce" d="M501.439 367.257h-298.563c-9.721 0-15.255-7.516-12.372-16.803l47.231-138.356c2.327-7.466 10.561-13.515 18.38-13.515h195.744c7.82 0 16.044 6.050 18.351 13.515l41.162 141.623c2.347 7.476-2.094 13.535-9.934 13.535zM274.538 39.197c0-24.666-19.996-44.662-44.662-44.662s-44.662 19.996-44.662 44.662c0 24.666 19.996 44.662 44.662 44.662s44.662-19.996 44.662-44.662zM463.524 38.64c0-24.666-19.996-44.662-44.662-44.662s-44.662 19.996-44.662 44.662c0 24.666 19.996 44.662 44.662 44.662s44.662-19.996 44.662-44.662zM472.487 153.132h-261.204l-104.569 300.889h-81.424c-13.97 0-25.29-11.32-25.29-25.29s11.32-25.29 25.29-25.29h45.451l104.569-300.889h297.177c13.97 0 25.29 11.32 25.29 25.29s-11.32 25.29-25.29 25.29z" />
<glyph unicode="&#xe91a;" glyph-name="interface-1" data-tags="interface-1" d="M426.557 479.038h-341.091c-47.006 0-85.465-38.459-85.465-85.465v-224.1c0-47.006 38.459-85.465 85.465-85.465h79.023v-115.058l142.439 115.058h119.597c46.995 0 85.465 38.459 85.465 85.465v224.1c0.032 47.006-38.427 85.465-85.433 85.465zM458.606 169.484c0-17.382-14.678-32.050-32.050-32.050h-138.517l-70.145-56.653v56.674h-132.428c-17.371 0-32.050 14.668-32.050 32.050v224.068c0 17.371 14.678 32.049 32.050 32.049h341.091c17.371 0 32.050-14.678 32.050-32.049v-224.090zM177.554 281.507c0-17.187-13.933-31.12-31.12-31.12s-31.12 13.933-31.12 31.12c0 17.187 13.933 31.12 31.12 31.12s31.12-13.933 31.12-31.12zM287.13 281.507c0-17.187-13.933-31.12-31.12-31.12s-31.12 13.933-31.12 31.12c0 17.187 13.933 31.12 31.12 31.12s31.12-13.933 31.12-31.12zM396.697 281.507c0-17.187-13.933-31.12-31.12-31.12s-31.12 13.933-31.12 31.12c0 17.187 13.933 31.12 31.12 31.12s31.12-13.933 31.12-31.12z" />
<glyph unicode="&#xe91b;" glyph-name="social" data-tags="social" d="M512 168.666v-189.29h-109.738v176.612c0 44.366-15.873 74.645-55.594 74.645-30.322 0-48.368-20.406-56.306-40.144-2.895-7.057-3.64-16.878-3.64-26.756v-184.357h-109.775c0 0 1.478 299.123 0 330.115h109.764v-46.793c-0.223-0.35-0.512-0.727-0.721-1.066h0.721v1.066c14.584 22.461 40.627 54.548 98.923 54.548 72.224 0.001 126.366-47.182 126.366-148.58zM62.117 468.623c-37.554 0-62.117-24.632-62.117-57.025 0-31.686 23.852-57.066 60.66-57.066h0.733c38.281 0 62.089 25.375 62.089 57.066-0.722 32.393-23.808 57.025-61.365 57.025zM6.519-20.623h109.734v330.115h-109.734v-330.115z" />
<glyph unicode="&#xe91c;" glyph-name="commerce-1" data-tags="commerce-1" d="M18.941 418.462h54.297l77.343-279.697c2.209-8.208 9.786-13.89 18.31-13.89h237.711c7.577 0 14.206 4.42 17.363 11.365l86.498 198.882c2.526 5.998 1.894 12.627-1.579 17.994s-9.471 8.524-15.784 8.524h-262.649c-10.417 0-18.941-8.524-18.941-18.941s8.524-18.941 18.941-18.941h233.607l-70.082-161h-210.879l-77.342 279.697c-2.21 8.208-9.786 13.89-18.309 13.89h-68.504c-10.418 0-18.941-8.523-18.941-18.941s8.524-18.941 18.941-18.941zM150.898-8.345c23.677 0 42.933 19.257 42.933 42.933s-19.256 42.933-42.933 42.933-42.933-19.255-42.933-42.932 19.257-42.934 42.933-42.934zM419.231-8.345c0.947 0 2.209 0 3.156 0 11.365 0.947 21.782 5.998 29.359 14.837 7.577 8.524 11.050 19.573 10.418 31.253-1.579 23.361-22.098 41.355-45.774 39.776s-41.355-22.414-39.776-45.774c1.577-22.414 20.204-40.093 42.618-40.093z" />
<glyph unicode="&#xe921;" glyph-name="interface" data-tags="interface" d="M483.667 341.173c-17.928 34.77-44.073 65.474-75.604 88.791-4.628 3.421-11.15 2.444-14.573-2.183s-2.443-11.15 2.183-14.573c28.978-21.429 53-49.64 69.475-81.587 17.261-33.475 26.013-69.683 26.013-107.622 0-129.668-105.493-235.161-235.161-235.161s-235.161 105.493-235.161 235.162 105.493 235.161 235.161 235.161c5.753 0 10.419 4.666 10.419 10.419s-4.666 10.419-10.419 10.419c-141.158 0-255.999-114.841-255.999-255.999s114.841-255.999 255.999-255.999 255.999 114.841 255.999 255.999c0 40.711-9.796 81.227-28.332 117.172zM190.494 342.869c-3.257-1.853-5.27-5.312-5.27-9.058v-228.654c0-5.755 4.666-10.419 10.419-10.419s10.419 4.664 10.419 10.419v210.326l154.26-91.832-113.436-73.085c-4.836-3.117-6.232-9.565-3.115-14.401 3.119-4.838 9.565-6.234 14.403-3.115l127.573 82.195c3.032 1.954 4.838 5.337 4.774 8.943s-1.988 6.923-5.088 8.769l-184.46 109.809c-3.223 1.916-7.22 1.957-10.478 0.104z" />
<glyph unicode="&#xe922;" glyph-name="social-1" data-tags="social-1" d="M512 382.738c-18.844-8.35-39.065-14.013-60.309-16.541 21.692 12.99 38.297 33.594 46.167 58.070-20.348-12.030-42.808-20.764-66.74-25.5-19.164 20.444-46.423 33.178-76.658 33.178-58.005 0-105.036-47.031-105.036-105.005 0-8.222 0.928-16.252 2.72-23.932-87.28 4.384-164.673 46.199-216.47 109.74-9.055-15.486-14.206-33.53-14.206-52.791 0-36.441 18.556-68.595 46.712-87.407-17.213 0.575-33.402 5.31-47.575 13.181v-1.312c0-50.87 36.218-93.326 84.24-102.989-8.799-2.368-18.076-3.68-27.675-3.68-6.782 0-13.341 0.672-19.772 1.952 13.373-41.752 52.151-72.114 98.094-72.947-35.929-28.155-81.233-44.888-130.44-44.888-8.478 0-16.829 0.512-25.051 1.44 46.487-29.851 101.677-47.255 160.994-47.255 193.211 0 298.824 160.034 298.824 298.824l-0.352 13.598c20.635 14.718 38.488 33.21 52.534 54.263z" />
<glyph unicode="&#xe92a;" glyph-name="arrows-5" data-tags="arrows-5" d="M480.452 275.247c-32.805 56.178-90.347 88.565-171.156 96.426v53.873c-0.105 7.127-4.087 13.521-10.377 16.769s-13.835 2.725-19.599-1.467l-177.13-126.612c-4.926-3.563-7.861-9.223-7.861-15.303s2.934-11.843 7.861-15.303l177.13-127.135c5.764-4.087 13.311-4.716 19.599-1.467s10.272 9.748 10.272 16.769v71.69c0 10.376-8.49 18.866-18.866 18.866s-18.866-8.489-18.866-18.866v-35.007l-125.877 90.347 125.877 90.033v-34.902c0-10.062 7.861-18.342 17.923-18.866 122.733-6.184 165.077-68.651 178.702-134.262-27.565 29.976-58.694 47.689-96.112 55.654-10.166 2.201-20.228-4.402-22.325-14.569-2.201-10.167 4.402-20.229 14.569-22.324 32.701-6.918 71.69-23.687 112.462-95.483 3.459-5.974 9.748-9.538 16.456-9.538 1.572 0 3.249 0.209 4.822 0.629 8.28 2.201 14.044 9.642 14.044 18.237 0 37.732-3.249 93.491-31.548 141.809zM358.348 186.263c-10.377 0-18.866-8.49-18.866-18.866v-126.087h-301.75v236.138h7.547c10.377 0 18.866 8.49 18.866 18.866s-8.489 18.866-18.866 18.866h-26.413c-10.377 0-18.866-8.489-18.866-18.866v-273.87c0-10.377 8.489-18.866 18.866-18.866h339.481c10.377 0 18.866 8.49 18.866 18.866v144.953c0 10.377-8.49 18.866-18.866 18.866z" />
<glyph unicode="&#xe931;" glyph-name="multimedia-1" data-tags="multimedia-1" d="M507.409 275.452c-2.296 4.278-5.322 8.034-9.077 11.164l-198.351 166.528c-25.563 21.39-62.605 21.39-88.168 0l-148.581-124.791c-7.93-6.678-8.974-18.469-2.295-26.502 6.678-7.93 18.468-8.974 26.503-2.296l148.581 124.791c11.582 9.704 28.276 9.704 39.858 0l187.291-157.241-79.507-54.257c-8.556-5.843-10.747-17.529-4.904-26.085 3.652-5.322 9.495-8.139 15.547-8.139 3.652 0 7.304 1.043 10.538 3.235l69.596 47.475v-186.457l-159.119 159.12c-15.86 15.86-36.937 24.625-59.474 24.625s-43.51-8.764-59.474-24.625l-20.764-20.764-145.243 98.185c-4.8 3.234-10.852 4.070-16.381 2.296-5.53-1.878-9.912-6.156-11.79-11.582-1.461-4.070-2.191-8.347-2.191-12.625v-240.505c0-10.226 3.965-19.721 11.165-26.92 3.652-3.652 8.451-5.53 13.252-5.53s9.6 1.878 13.252 5.53c0.105 0.104 0.209 0.313 0.313 0.418l184.996 184.996c8.764 8.764 20.451 13.565 32.868 13.565s24.102-4.8 32.867-13.565l159.12-159.12h-334.934c-10.329 0-18.781-8.452-18.781-18.781s8.451-18.781 18.781-18.781h360.914c10.226 0 19.616 4.070 26.502 10.747 0.209 0.104 0.313 0.313 0.522 0.418 0.104 0.104 0.313 0.313 0.418 0.418 6.678 6.887 10.747 16.277 10.747 26.502v240.505c0 6.366-1.565 12.522-4.591 18.051zM37.459 42.983v186.248l111.123-75.125-111.123-111.123z" />
<glyph unicode="&#xe932;" glyph-name="technology-2" data-tags="technology-2" d="M160.817 310.506l-118.224 118.285c15.26 15.26 30.489 30.549 45.779 45.839 7.069 7.068 18.475 7.19 25.574 0.212l92.104-92.194c7.038-7.038 7.038-18.627-0.091-25.726l-38.953-38.923c-2.305-2.336-4.399-4.823-6.189-7.494zM258.078 117.835c-19.355 16.655-37.922 34.341-55.941 52.332-17.99 18.111-35.616 36.617-52.301 56.063-13.651 15.775-16.322 38.619-9.192 57.853l-121.349 121.379c-28.244-29.033-24.634-101.023 6.31-164.276 13.287-27.364 30.519-52.058 48.327-75.54 17.778-23.299 37.285-45.324 57.822-66.014 20.599-20.659 42.502-40.257 65.862-58.035 23.481-17.868 48.236-34.978 75.418-48.236 63.344-30.913 135.365-34.312 164.366-6.037l-121.379 121.379c-19.234-7.129-42.108-4.49-57.944 9.132zM506.691 82.007l-92.103 92.134c-7.068 6.978-18.658 6.978-25.726-0.091h-0.060l-20.235-20.204-18.657-18.748c-2.305-2.305-4.824-4.338-7.493-6.219l118.194-118.254c15.29 15.32 30.55 30.55 45.87 45.809 7.129 7.068 7.281 18.505 0.212 25.574z" />
<glyph unicode="&#xe941;" glyph-name="social-network" data-tags="social-network" d="M393.846 342.154c-10.851 0-19.692 8.842-19.692 19.692v39.385c0 10.851 8.842 19.692 19.692 19.692h39.385c10.851 0 19.692-8.842 19.692-19.692v-39.385c0-10.851-8.842-19.692-19.692-19.692h-39.385zM256 299.067c-14.297 0-27.49-4.195-38.853-11.087 3.544 1.103 7.227 1.832 11.107 1.832 21.031 0 38.065-17.034 38.065-38.085 0-20.992-17.034-38.065-38.065-38.065s-38.065 17.053-38.065 38.065c0 3.919 0.768 7.601 1.851 11.126-6.931-11.363-11.107-24.557-11.107-38.853 0-41.492 33.576-75.087 75.087-75.087 41.452 0 75.087 33.575 75.087 75.087s-33.654 75.067-75.106 75.067zM256 342.154c65.24 0 118.154-52.894 118.154-118.154s-52.933-118.154-118.154-118.154c-65.24 0-118.154 52.894-118.154 118.154s52.913 118.154 118.154 118.154zM256 381.538c-86.863 0-157.538-70.675-157.538-157.538s70.675-157.538 157.538-157.538 157.538 70.675 157.538 157.538-70.675 157.538-157.538 157.538v0zM416 480h-320c-53.032 0-96-42.969-96-96v-320c0-53.031 42.968-96 96-96h320c53.031 0 96 42.969 96 96v320c0 53.031-42.969 96-96 96zM472.615 302.769h-128.728c18.767-20.933 30.267-48.463 30.267-78.769 0-65.26-52.933-118.154-118.154-118.154-65.24 0-118.154 52.894-118.154 118.154 0 30.306 11.5 57.856 30.267 78.769h-128.728v81.231c0 31.212 25.403 56.615 56.615 56.615h320c31.232 0 56.615-25.403 56.615-56.615v-81.231z" />
<glyph unicode="&#xe94a;" glyph-name="technology-3" data-tags="technology-3" d="M491.64 293.083v124.453c0 19.924-16.21 36.133-36.134 36.133h-419.373c-19.925 0-36.133-16.21-36.133-36.133v-253.528c0-19.924 16.21-36.133 36.133-36.133h118.853l-13.606-14.644h-20.383c-4.633 0-8.39-3.757-8.39-8.39s3.757-8.39 8.39-8.39h116.747v-80.919c0-11.689 9.51-21.2 21.2-21.2h90.197c11.689 0 21.2 9.51 21.2 21.2v17.042h112.92c15.848 0 28.739 12.897 28.739 28.75v204.261c0 12.936-8.585 23.899-20.36 27.499zM495.219 265.585v-2.292h-192.962v2.292c0 6.6 5.37 11.97 11.97 11.97h169.034c6.594-0.001 11.959-5.371 11.959-11.97zM349.14 194.7h-46.883v51.812h192.962v-166.114h-124.879v93.103c0 11.689-9.511 21.199-21.2 21.199zM353.56 162.473h-99.035v11.028c0 2.437 1.982 4.42 4.42 4.42h90.197c2.437 0 4.42-1.983 4.42-4.42v-11.028zM474.858 409.146v-114.81h-160.632c-15.853 0-28.75-12.898-28.75-28.75v-70.885h-26.533c-11.68 0-21.184-9.495-21.198-21.172h-220.966v235.618h458.079zM254.524 145.692h99.035v-102.354h-99.035v102.354zM36.133 436.889h419.373c7.663 0 14.28-4.488 17.413-10.963h-454.199c3.134 6.475 9.751 10.963 17.413 10.963zM18.206 156.747h219.538v-12.093h-201.612c-8.102 0.001-15.049 5.012-17.927 12.093zM164.286 113.231l13.606 14.644h59.853v-14.644h-73.459zM349.139 11.111h-90.197c-2.437 0-4.42 1.983-4.42 4.42v11.027h99.035v-11.027c0.001-2.437-1.983-4.42-4.419-4.42zM483.26 49.353h-112.92v14.263h124.879v-2.293c0-6.599-5.364-11.97-11.959-11.97z" />
<glyph unicode="&#xe94b;" glyph-name="social-network-1" data-tags="social-network-1" d="M437.469 263.966v64.81h-43.207v-64.81h-64.81v-43.207h64.81v-64.81h43.207v64.81h64.81v43.207h-64.81zM271.123 190.515l-23.764 17.283c-8.642 6.48-17.282 15.123-17.282 30.244s10.802 28.084 21.603 34.566c28.085 21.603 56.169 45.367 56.169 92.894 0 45.367-28.084 71.291-43.207 84.253h36.726l25.924 30.245h-133.941c-95.055 0-142.583-60.49-142.583-125.299 0-49.688 38.886-103.696 108.017-103.696h17.282c-2.161-6.481-8.642-17.282-8.642-28.084 0-21.603 8.642-30.245 19.443-43.207-30.244-2.161-86.413-8.642-127.46-34.565-38.886-23.764-49.688-56.169-49.688-79.933 0-49.688 45.367-97.215 142.583-97.215 116.658 0 172.828 64.81 172.828 127.459-0.001 45.368-23.764 69.132-54.010 95.055zM106.936 387.106c0 47.528 28.084 69.131 58.329 69.131 56.169 0 86.413-75.612 86.413-118.818 0-56.169-45.367-66.971-62.65-66.971-54.008 0-82.093 66.971-82.093 116.658zM184.708-1.755c-71.291 0-116.658 32.405-116.658 79.933s43.207 62.65 56.169 69.131c28.084 8.642 64.81 10.801 71.291 10.801s10.802 0 15.123 0c51.848-36.726 73.452-51.848 73.452-86.413 0-41.048-41.046-73.452-99.375-73.452z" />
<glyph unicode="&#xe956;" glyph-name="link" data-tags="link" d="M472.21 248.020l-96.114-96.083c-53.048-53.079-139.103-53.079-192.16 0-8.357 8.334-14.895 17.724-20.637 27.408l44.659 44.656c2.123 2.141 4.744 3.368 7.25 4.813 3.088-10.548 8.477-20.534 16.773-28.832 26.493-26.514 69.601-26.476 96.077 0l96.084 96.080c26.512 26.51 26.512 69.609 0 96.099-26.478 26.49-69.575 26.49-96.084 0l-34.168-34.205c-27.727 10.796-57.599 13.699-86.679 9.437l72.808 72.805c53.079 53.069 139.113 53.069 192.192 0 53.053-53.066 53.053-139.113 0-192.179zM218.127 90.027l-34.192-34.204c-26.49-26.476-69.6-26.476-96.095 0-26.492 26.514-26.492 69.611 0 96.114l96.095 96.083c26.512 26.508 69.593 26.508 96.083 0 8.276-8.279 13.672-18.262 16.788-28.798 2.519 1.464 5.108 2.654 7.231 4.779l44.656 44.637c-5.704 9.722-12.276 19.078-20.637 27.421-53.043 53.069-139.107 53.069-192.175 0l-96.081-96.084c-53.063-53.084-53.063-139.107 0-192.187 53.069-53.052 139.113-53.052 192.18 0l72.827 72.822c-29.096-4.286-58.976-1.359-86.679 9.417z" />
<glyph unicode="&#xe96b;" glyph-name="monitor" data-tags="monitor" d="M364.976 15.637h2.424c-25.294 3.162-38.784 13.279-45.952 23.502h-130.899c-7.167-10.223-20.657-20.341-45.952-23.502h1.581c-7.905 0-14.228-6.429-14.228-14.228 0-7.904 6.429-14.228 14.228-14.228h218.796c7.904 0 14.228 6.429 14.228 14.228 0.106 7.904-6.324 14.228-14.228 14.228zM512 155.6v268.015c0 20.552-16.652 37.204-37.204 37.204h-437.592c-20.552 0-37.204-16.652-37.204-37.204v-274.549c0-0.106 0-0.316 0-0.421v-49.745c0-0.211 0-0.421 0-0.632v-2.74c0-0.211 0-0.421 0-0.632v-0.738c0.632-17.495 15.071-31.512 32.778-31.512h446.34c17.706 0 32.039 14.017 32.777 31.512v0l0.106 61.444zM285.721 98.372c0-4.532-3.689-8.221-8.221-8.221h-43.106c-4.532 0-8.22 3.689-8.22 8.221v5.691c0 4.532 3.689 8.221 8.22 8.221h43.106c4.532 0 8.221-3.689 8.221-8.221v-5.691zM474.796 142.531h-437.592c-3.584 0-6.535 2.951-6.535 6.534v274.549c0 3.584 2.951 6.534 6.535 6.534h437.487c3.584 0 6.534-2.951 6.534-6.534v-274.549c0-3.584-2.846-6.534-6.429-6.534zM362.764 297.353h16.442l0.527 0.527c0 5.059-0.421 10.223-1.159 15.282l-15.809-15.809zM325.033 390.732l-52.169-52.169v-16.442l62.182 62.182c-3.267 2.424-6.64 4.532-10.012 6.429zM301.846 400.323l-28.983-28.983v-16.441l41.103 41.103c-3.899 1.792-8.010 3.162-12.12 4.321zM288.356 403.168c-5.059 0.738-10.118 1.159-15.282 1.159l-0.211-0.211v-16.441l15.493 15.493zM313.65 297.353l52.38 52.38c-1.897 3.373-4.005 6.745-6.429 10.012l-62.393-62.393h16.442zM352.329 368.916c-1.264 1.37-2.529 2.74-3.899 4.111s-2.846 2.74-4.321 4.111l-71.246-71.351v-8.326h8.010l71.457 71.457zM346.428 297.353l29.3 29.3c-1.159 4.111-2.635 8.115-4.216 12.12l-41.42-41.42h16.336zM254.208 385.884c-59.231 0-107.29-48.060-107.29-107.29s48.060-107.29 107.29-107.29 107.29 48.060 107.29 107.29h-107.29v107.29z" />
<glyph unicode="&#xe973;" glyph-name="graphic-5" data-tags="graphic-5" d="M342.781 409.57c7.072 15.201 14.146 30.296 21.64 46.447-82.339 34.625-162.673 32.935-239.522-12.773-74.21-44.231-114.535-111.264-124.881-197.72 17.629-1.583 34.308-2.956 50.987-4.434 9.078 130.582 153.383 230.761 291.776 168.478zM508.304 267.587c-16.574-2.85-33.041-5.806-50.248-8.761 8.868-59.854-3.378-113.691-40.008-160.878-36.313-46.976-84.873-72.839-144.41-79.384 1.478-16.89 2.85-33.358 4.328-49.825 124.564 4.433 257.995 129.526 230.338 298.849zM50.161 205.2c-15.834-1.373-32.302-2.745-48.77-4.223 3.8-104.401 94.901-221.788 232.133-232.977 1.478 16.89 2.956 33.464 4.328 49.509-107.252 17.945-169.534 80.122-187.691 187.691zM418.365 348.238c12.773-16.574 22.696-34.835 30.402-54.892 15.94 5.806 31.669 11.506 48.137 17.524-19.002 50.565-50.037 90.784-93.951 122.347-9.817-13.934-19.423-27.657-29.346-41.909 16.89-12.457 31.986-26.496 44.759-43.069zM319.030 292.289c-4.645 0-8.339-3.695-8.339-8.339v-164.995c0-4.645 3.695-8.339 8.339-8.339h57.11c4.645 0 8.339 3.695 8.339 8.339v164.995c0 4.645-3.695 8.339-8.339 8.339h-57.11zM367.8 127.295h-40.43v148.21h40.43v-148.21zM135.879 248.481c-4.645 0-8.34-3.695-8.34-8.339v-121.186c0-4.645 3.694-8.339 8.34-8.339h57.109c4.645 0 8.339 3.695 8.339 8.339v121.186c0 4.645-3.695 8.339-8.339 8.339h-57.109zM144.218 127.295v12.984l12.984-12.984h-12.984zM170.398 127.295l-26.179 26.18v13.195l39.481-39.481h-13.301v0.106zM184.649 139.539l-40.43 40.43v13.195l40.43-40.43v-13.195zM184.649 165.93l-40.43 40.43v13.195l40.43-40.43v-13.195zM184.649 192.321l-39.375 39.375h13.196l26.179-26.18v-13.195zM184.649 218.817l-12.984 12.984h12.984v-12.984zM227.401 359.322c-4.645 0-8.339-3.695-8.339-8.34v-232.027c0-4.645 3.695-8.339 8.339-8.339h57.109c4.645 0 8.339 3.695 8.339 8.339v232.027c0 4.645-3.695 8.339-8.339 8.339 0 0-57.109 0-57.109 0z" />
<glyph unicode="&#xe983;" glyph-name="connection" data-tags="connection" d="M69.808 107.65c-19.394 0-35.873-6.789-49.452-20.361-13.569-13.57-20.357-30.053-20.357-49.447 0-19.398 6.782-35.877 20.357-49.447 13.578-13.572 30.063-20.361 49.452-20.361 19.391 0 35.872 6.789 49.448 20.361 13.571 13.57 20.358 30.050 20.358 49.447 0 19.394-6.788 35.876-20.358 49.447-13.572 13.572-30.052 20.361-49.447 20.361zM230.517 198.553c-27.393 27.632-58.782 49.629-94.173 65.988-35.391 16.364-72.481 26.121-111.261 29.272h-1.814c-6.302 0-11.515-2.062-15.633-6.182-5.093-4.358-7.636-10.058-7.636-17.087v-49.084c0-6.058 1.998-11.271 5.995-15.637 3.999-4.367 9.028-6.791 15.088-7.269 55.507-5.334 102.957-27.702 142.344-67.086 39.389-39.385 61.752-86.837 67.084-142.341 0.487-6.067 2.909-11.095 7.274-15.087 4.364-4.009 9.573-6.011 15.632-6.011h49.087c7.026 0 12.721 2.541 17.084 7.636 4.611 4.854 6.668 10.673 6.193 17.459-3.156 38.774-12.913 75.867-29.274 111.255-16.36 35.394-38.359 66.78-65.992 94.175zM468.303 174.74c-25.935 58.053-61.567 109.621-106.893 154.708-45.089 45.329-96.654 80.96-154.712 106.897-58.052 25.932-118.832 40.479-182.341 43.63h-1.089c-6.303 0-11.634-2.182-15.999-6.546-4.846-4.359-7.269-9.939-7.269-16.726v-51.991c0-6.062 2.123-11.33 6.362-15.815 4.241-4.486 9.389-6.846 15.45-7.094 52.117-3.155 101.624-15.522 148.529-37.093 46.903-21.573 87.625-49.631 122.167-84.166 34.535-34.541 62.591-75.265 84.165-122.168 21.573-46.911 33.82-96.411 36.726-148.525 0.248-6.067 2.606-11.219 7.086-15.459 4.488-4.24 9.885-6.366 16.186-6.366h51.988c6.789 0 12.354 2.422 16.726 7.278 4.851 4.847 7.026 10.537 6.551 17.084-3.147 63.515-17.699 124.294-43.634 182.353z" />
<glyph unicode="&#xe98c;" glyph-name="arrows-1" data-tags="arrows-1" d="M336.623 257.259c5.831-5.823 15.278-5.82 21.106 0.007l71.667 71.665 22.967-22.949c4.716-4.716 11.666-6.418 18.033-4.433 6.368 2.002 11.101 7.351 12.283 13.917l26.382 145.631c0.935 5.2-0.734 10.517-4.483 14.233-3.734 3.732-9.067 5.366-14.252 4.4l-144.894-27.149c-6.55-1.233-11.867-5.968-13.832-12.333-1.966-6.351-0.251-13.284 4.449-17.983l22.949-22.949-71.702-71.674c-5.834-5.832-5.832-15.292 0.005-21.122l49.322-49.259zM175.375 190.74c-5.831 5.824-15.278 5.822-21.106-0.007l-71.663-71.665-22.966 22.95c-4.719 4.718-11.666 6.418-18.032 4.435-6.368-2.001-11.1-7.35-12.285-13.917l-26.382-145.632c-0.931-5.199 0.735-10.515 4.484-14.231 3.734-3.732 9.068-5.368 14.251-4.4l144.897 27.149c6.552 1.233 11.865 5.968 13.833 12.334 1.966 6.351 0.25 13.283-4.451 17.983l-22.948 22.949 71.778 71.559c5.848 5.831 5.853 15.301 0.011 21.137l-49.417 49.356zM29.322 315.465c1.183-6.566 5.916-11.915 12.283-13.917 6.367-1.984 13.316-0.284 18.032 4.433l22.967 22.949 71.667-71.665c5.827-5.827 15.274-5.83 21.105-0.007l49.323 49.258c5.838 5.83 5.839 15.289 0.006 21.122l-71.703 71.674 22.949 22.949c4.7 4.699 6.416 11.632 4.449 17.983-1.966 6.364-7.283 11.099-13.833 12.333l-144.895 27.149c-5.184 0.966-10.518-0.667-14.252-4.4-3.748-3.715-5.417-9.032-4.482-14.233l26.382-145.629zM482.68 132.536c-1.185 6.566-5.917 11.915-12.286 13.917-6.366 1.982-13.314 0.284-18.033-4.435l-22.966-22.949-71.664 71.664c-5.827 5.828-15.275 5.83-21.106 0.007l-49.416-49.356c-5.842-5.836-5.839-15.305 0.010-21.137l71.777-71.559-22.948-22.949c-4.701-4.7-6.418-11.632-4.451-17.983 1.969-6.365 7.283-11.1 13.834-12.334l144.896-27.149c5.183-0.968 10.517 0.668 14.25 4.4 3.748 3.716 5.415 9.033 4.483 14.231l-26.381 145.632z" />
<glyph unicode="&#xe9eb;" glyph-name="calendar" data-tags="calendar" d="M186.543 197.532c0 6.413-5.202 11.61-11.621 11.61h-40.554c-6.412 0-11.615-5.196-11.615-11.61v-40.548c0-6.422 5.204-11.62 11.615-11.62h40.554c6.419 0 11.621 5.198 11.621 11.62v40.548zM287.892 197.532c0 6.413-5.204 11.61-11.61 11.61h-40.559c-6.411 0-11.615-5.196-11.615-11.61v-40.548c0-6.422 5.203-11.62 11.615-11.62h40.559c6.406 0 11.61 5.198 11.61 11.62v40.548zM389.248 197.532c0 6.413-5.204 11.61-11.615 11.61h-40.554c-6.419 0-11.622-5.196-11.622-11.61v-40.548c0-6.422 5.202-11.62 11.622-11.62h40.554c6.411 0 11.615 5.198 11.615 11.62v40.548zM186.543 96.172c0 6.424-5.202 11.616-11.621 11.616h-40.554c-6.412 0-11.615-5.192-11.615-11.616v-40.541c0-6.418 5.204-11.615 11.615-11.615h40.554c6.419 0 11.621 5.198 11.621 11.615v40.541zM287.892 96.172c0 6.424-5.204 11.616-11.61 11.616h-40.559c-6.411 0-11.615-5.192-11.615-11.616v-40.541c0-6.418 5.203-11.615 11.615-11.615h40.559c6.406 0 11.61 5.198 11.61 11.615v40.541zM389.248 96.172c0 6.424-5.204 11.616-11.61 11.616h-40.559c-6.419 0-11.622-5.192-11.622-11.616v-40.541c0-6.418 5.202-11.615 11.622-11.615h40.559c6.406 0 11.61 5.198 11.61 11.615v40.541zM461.762 422.99v-61.935c0-27.994-22.71-50.553-50.7-50.553h-31.983c-27.992 0-51.002 22.559-51.002 50.553v62.157h-144.155v-62.157c0-27.994-23.010-50.553-50.998-50.553h-31.989c-27.989 0-50.697 22.559-50.697 50.553v61.935c-24.462-0.738-44.563-20.979-44.563-45.859v-362.967c0-25.348 20.545-46.165 45.892-46.165h408.864c25.31 0 45.892 20.861 45.892 46.166v362.967c0 24.88-20.1 45.122-44.563 45.859zM446.907 36.767c0-10.954-8.882-19.841-19.84-19.841h-343.007c-10.959 0-19.84 8.887-19.84 19.841v187.486c0 10.959 8.88 19.846 19.84 19.846h343.007c10.959 0 19.84-8.887 19.84-19.846l0.001-187.486zM100.824 343.707h31.635c9.602 0 17.388 7.774 17.388 17.376v101.535c0 9.603-7.786 17.382-17.388 17.382h-31.636c-9.603 0-17.388-7.779-17.388-17.382v-101.535c0-9.602 7.784-17.376 17.388-17.376zM378.673 343.707h31.635c9.596 0 17.382 7.774 17.382 17.376v101.535c0.001 9.603-7.784 17.382-17.382 17.382h-31.635c-9.601 0-17.387-7.779-17.387-17.382v-101.535c0-9.602 7.786-17.376 17.387-17.376z" />
<glyph unicode="&#xeaf4;" glyph-name="app" data-tags="app" d="M362.264 480h-212.528c-30.134 0-54.65-24.521-54.65-54.66v-402.681c0-30.139 24.516-54.66 54.65-54.66h212.528c30.134 0 54.65 24.521 54.65 54.66v402.681c0 30.139-24.516 54.66-54.65 54.66zM396.016 22.66c0-18.617-15.141-33.762-33.752-33.762h-212.528c-18.612 0-33.752 15.145-33.752 33.762v11.35h280.033v-11.35zM396.016 54.908h-280.032v340.826h280.033v-340.826zM396.016 416.632h-280.032v8.708c0 18.616 15.141 33.762 33.752 33.762h212.528c18.612 0 33.752-15.146 33.752-33.762v-8.708zM256 31.927c-11.287 0-20.469-9.184-20.469-20.472s9.182-20.472 20.469-20.472 20.47 9.184 20.47 20.472c0 11.288-9.183 20.472-20.47 20.472zM256 11.029c-0.236 0-0.428 0.192-0.428 0.426s0.191 0.426 0.428 0.426 0.429-0.192 0.429-0.426c0-0.234-0.193-0.426-0.429-0.426zM272.367 327.099c-5.667 1.111-11.154-2.579-12.265-8.242l-32.317-164.698c-1.111-5.663 2.579-11.154 8.241-12.265 0.679-0.134 1.356-0.197 2.024-0.197 4.894 0 9.264 3.457 10.242 8.439l32.317 164.7c1.11 5.661-2.579 11.152-8.242 12.263zM354.093 234.254c-0.008 0.171-0.008 0.343-0.025 0.514-0.016 0.161-0.046 0.321-0.069 0.482-0.024 0.171-0.042 0.343-0.074 0.512-0.032 0.165-0.079 0.327-0.12 0.491-0.040 0.163-0.072 0.327-0.119 0.488-0.048 0.162-0.112 0.32-0.167 0.479s-0.103 0.321-0.167 0.479c-0.059 0.144-0.132 0.282-0.196 0.424-0.077 0.168-0.147 0.34-0.234 0.505-0.063 0.119-0.139 0.233-0.207 0.35-0.104 0.181-0.204 0.365-0.32 0.54-0.065 0.098-0.142 0.19-0.21 0.286-0.134 0.188-0.264 0.378-0.412 0.559-0.060 0.073-0.13 0.14-0.191 0.212-0.168 0.195-0.335 0.391-0.52 0.576l-48.454 48.506c-4.078 4.082-10.695 4.087-14.778 0.007-4.082-4.078-4.086-10.695-0.008-14.777l41.077-41.121-40.35-40.393c-4.077-4.082-4.074-10.699 0.008-14.778 2.040-2.038 4.713-3.056 7.384-3.056 2.676 0 5.352 1.022 7.393 3.065l47.727 47.778c0.185 0.185 0.352 0.381 0.52 0.576 0.062 0.072 0.132 0.139 0.191 0.212 0.147 0.181 0.278 0.371 0.412 0.559 0.068 0.096 0.145 0.188 0.21 0.286 0.116 0.176 0.215 0.359 0.32 0.54 0.068 0.117 0.144 0.231 0.207 0.35 0.087 0.165 0.157 0.335 0.234 0.505 0.065 0.141 0.138 0.28 0.196 0.424 0.064 0.157 0.112 0.319 0.167 0.479s0.119 0.318 0.167 0.479c0.048 0.161 0.079 0.326 0.119 0.488 0.040 0.164 0.088 0.326 0.12 0.491 0.032 0.169 0.050 0.342 0.074 0.512 0.023 0.161 0.053 0.32 0.069 0.482 0.017 0.17 0.017 0.343 0.025 0.514 0.007 0.163 0.023 0.325 0.023 0.488 0 0.162-0.015 0.324-0.022 0.487zM220.125 193.373l-41.076 41.121 40.349 40.393c4.078 4.083 4.074 10.699-0.008 14.777-4.083 4.079-10.698 4.075-14.778-0.007l-47.726-47.778c-0.179-0.179-0.34-0.369-0.503-0.557-0.068-0.078-0.143-0.151-0.209-0.231-0.136-0.167-0.255-0.343-0.379-0.516-0.079-0.111-0.168-0.217-0.242-0.33-0.102-0.156-0.189-0.318-0.282-0.477-0.082-0.138-0.17-0.273-0.245-0.414-0.074-0.141-0.133-0.286-0.2-0.429-0.077-0.166-0.162-0.329-0.231-0.498-0.054-0.133-0.093-0.27-0.141-0.403-0.066-0.184-0.138-0.367-0.193-0.554-0.043-0.142-0.070-0.287-0.106-0.432-0.046-0.183-0.098-0.364-0.134-0.548-0.031-0.16-0.046-0.321-0.070-0.482-0.025-0.171-0.057-0.341-0.074-0.512-0.016-0.168-0.017-0.336-0.024-0.506-0.007-0.165-0.023-0.33-0.023-0.496s0.016-0.331 0.023-0.496c0.008-0.168 0.008-0.338 0.024-0.506s0.048-0.335 0.072-0.504c0.024-0.164 0.040-0.328 0.071-0.49 0.033-0.174 0.084-0.346 0.126-0.519 0.038-0.154 0.068-0.308 0.113-0.46 0.050-0.171 0.117-0.338 0.177-0.507 0.053-0.151 0.098-0.303 0.158-0.45 0.062-0.15 0.138-0.297 0.207-0.445 0.074-0.161 0.141-0.325 0.225-0.483 0.066-0.124 0.145-0.242 0.215-0.365 0.101-0.177 0.198-0.354 0.311-0.526 0.065-0.098 0.142-0.19 0.21-0.286 0.134-0.188 0.264-0.378 0.412-0.559 0.060-0.073 0.13-0.14 0.191-0.212 0.168-0.195 0.335-0.391 0.52-0.576l48.454-48.506c2.041-2.043 4.717-3.065 7.393-3.065 2.673 0 5.345 1.019 7.384 3.056 4.083 4.078 4.086 10.694 0.009 14.778z" />
<glyph unicode="&#xeb4f;" glyph-name="global" data-tags="global" d="M437.019 405.019c-48.351 48.352-112.639 74.981-181.019 74.981s-132.667-26.629-181.019-74.981c-48.352-48.352-74.981-112.639-74.981-181.019s26.629-132.667 74.981-181.019c48.352-48.352 112.639-74.981 181.019-74.981s132.668 26.629 181.019 74.981c48.352 48.352 74.981 112.639 74.981 181.019s-26.629 132.667-74.981 181.019zM375.98 369.969l11.254 46.752c44.813-30.612 78.449-76.426 93.423-129.958l-5.895-1.134c-8.803-1.693-15.888-8.409-18.046-17.112l-2.287-9.218c-0.025-0.104-0.042-0.172-0.209-0.231-0.165-0.059-0.222-0.017-0.308 0.047l-13.659 10.243c-7.080 5.31-16.72 6.089-24.558 1.984l-17.046-8.924c-8.175-4.28-12.901-12.661-12.333-21.873s6.287-16.948 14.93-20.193l0.808-0.303c0.093-0.035 0.162-0.060 0.204-0.228 0.042-0.166-0.005-0.221-0.072-0.297l-10.618-12.211c-0.107-0.122-0.291-0.15-0.429-0.060l-28.62 18.466c-6.563 4.235-14.744 4.873-21.882 1.702-7.138-3.17-12.154-9.663-13.414-17.37l-2.208-13.493c-1.248-7.616 1.372-15.312 7.009-20.586l14.926-13.967c0.118-0.11 0.139-0.288 0.050-0.422l-24.326-36.875c-2.314-3.509-3.628-7.586-3.797-11.789l-2.111-52.793c-0.003-0.083-0.038-0.162-0.099-0.221l-32.395-31.753c-0.107-0.105-0.272-0.125-0.399-0.050l-21.006 12.305c-0.080 0.047-0.137 0.125-0.156 0.214 0 0-10.191 46.244-10.572 47.269l-9.265 24.868c-3.096 8.308-10.802 14.172-19.632 14.939l-42.402 3.688c-0.107 0.009-0.203 0.069-0.257 0.164l-24.122 41.591c-0.038 0.065-0.051 0.142-0.041 0.215l6.067 40.337c0.013 0.086 0.058 0.163 0.127 0.215l37.037 27.945c0.094 0.071 0.218 0.085 0.327 0.041l35.888-14.972c2.043-0.851 4.194-1.404 6.391-1.643l49.706-5.403c5.666-0.616 11.319 0.873 15.944 4.188l32.932 23.605c8.872 6.359 12.081 18.209 7.63 28.177l-3.055 6.838c-3.545 7.936-11.139 13.161-19.816 13.635l-92.487 5.064c-0.050 0.003-0.1 0.018-0.144 0.043-0.094 0.053-0.144 0.096-0.149 0.096v-0.001c-0.045 0.104-0.011 0.367 0.042 0.44 0.014 0.009 0.072 0.039 0.185 0.071l27.766 7.484c3.673 0.99 7.075 2.892 9.838 5.5l33.956 32.043c0.051 0.049 0.119 0.080 0.191 0.088l51.104 5.263c9.723 1 17.792 8.056 20.080 17.56zM202.878 388.756l19.104 35.958c2.823 5.315 3.713 11.489 2.503 17.384l-2.594 12.645c11.137 1.64 22.523 2.501 34.108 2.501 11.684 0 23.167-0.875 34.395-2.541 0 0-2.737-2.992-3.21-3.181l-27.057-10.853c-3.866-1.552-7.342-4.045-10.052-7.211l-42.157-49.274c-0.573-0.67-1.407-1.075-2.289-1.113-1.339-0.059-2.166 0.68-2.553 1.11-1.499 1.668-0.344 4.297-0.198 4.575zM103.424 400.282v-34.139c0-9.535-4.779-18.318-12.777-23.506l-24.497-15.896c-5.677-3.686-10.49-8.385-14.302-13.972l-22.234-32.58c11.761 47.373 38.027 89.079 73.81 120.093zM118.295 64.415l-3.223-26.139c-36.472 27.742-64.562 65.958-79.735 110.13h14.486c1.775 0 3.413-0.899 4.369-2.389l29.275-45.614c1.32-2.048 2.89-3.914 4.688-5.552l28.479-25.975c1.24-1.127 1.866-2.8 1.661-4.461zM256-9.244c-43.759 0-84.736 12.123-119.767 33.172l4.647 37.7c1.104 8.977-2.23 17.977-8.909 24.064 0 0-29.104 26.624-29.355 27l-29.275 45.613c-5.166 8.055-13.961 12.857-23.518 12.857h-21.030c-3.948 16.984-6.038 34.672-6.038 52.838 0 1.962 0.026 3.916 0.074 5.866l47.815 70.069c2.105 3.095 4.756 5.689 7.896 7.725l24.485 15.883c14.495 9.398 23.154 25.327 23.154 42.598v51.543c22.089 14.854 46.848 26.023 73.389 32.643l2.626-12.801c0.148-0.725 0.039-1.484-0.308-2.136l-19.102-35.957c-1.194-2.245-2.741-8.149-2.741-8.149-1.551-7.852 0.547-15.84 5.757-21.916 4.968-5.795 12.086-9.057 19.67-9.057 0.369 0 11.37-0.537 19.738 9.078l42.156 49.271c0.333 0.39 0.762 0.697 1.236 0.887l27.055 10.852c3.848 1.543 7.309 4.020 10.011 7.162l10.213 11.875c17.977-4.78 35.113-11.644 51.117-20.34-0.264-0.604-13.142-53.804-13.142-53.804-0.032-0.135-0.148-0.236-0.287-0.25l-51.107-5.263c-5.022-0.518-9.809-2.71-13.478-6.174l-33.956-32.043c-0.039-0.036-0.086-0.064-0.14-0.077l-27.767-7.484c-9.059-2.441-15.688-10.032-16.888-19.337s3.286-18.328 11.43-22.99c3.105-1.776 6.634-2.818 10.204-3.014l92.487-5.064c0.123-0.007 0.232-0.082 0.282-0.195l3.054-6.836c0.064-0.142 0.018-0.312-0.11-0.403l-32.932-23.605c-0.066-0.048-0.143-0.069-0.226-0.060l-49.796 5.425-35.884 14.97c-7.539 3.147-16.271 2.043-22.793-2.876l-37.038-27.946c-4.85-3.66-8.019-8.985-8.922-14.994l-6.068-40.338c-0.776-5.164 0.24-10.496 2.859-15.013l24.123-41.594c3.768-6.498 10.486-10.766 17.97-11.418l42.403-3.688c0.125-0.011 0.236-0.094 0.28-0.214l9.277-24.913 9.652-44.141c1.373-6.276 5.34-11.738 10.883-14.987l21.007-12.306c3.62-2.121 7.645-3.154 11.645-3.154 5.905 0 11.759 2.253 16.183 6.588l32.395 31.753c4.22 4.136 6.673 9.663 6.909 15.565l2.111 52.789c0.002 0.061 0.020 0.121 0.055 0.169l24.327 36.875c6.213 9.422 4.741 21.857-3.5 29.567l-14.927 13.967c-0.080 0.075-0.117 0.185-0.1 0.294l2.21 13.494c0.018 0.109 0.027 0.175 0.191 0.248 0.159 0.073 0.217 0.036 0.312-0.024l28.618-18.466c9.582-6.183 22.451-4.359 29.936 4.248l10.618 12.211c4.962 5.704 6.816 13.485 4.961 20.813-1.856 7.328-7.187 13.29-14.268 15.948l-0.808 0.303c-0.104 0.039-0.156 0.073-0.158 0.073-0.063 0.086-0.077 0.344-0.034 0.428 0.010 0.010 0.058 0.050 0.155 0.101l17.046 8.925c0.113 0.059 0.249 0.048 0.35-0.028l13.659-10.243c6.21-4.658 14.283-5.883 21.595-3.279 7.311 2.603 12.792 8.655 14.661 16.189l2.287 9.217c0.030 0.124 0.131 0.221 0.258 0.245l6.647 1.278c2.323-13.177 3.541-26.729 3.541-40.561-0.004-128.609-104.637-233.241-233.248-233.241z" />
</font>
</defs>
</svg>
